Ref: QR144-1. Clips video YouTube de Gabriel Yared : Anthem, To All The Ships At Sea, Ada Plays, Ada And Inman, Love Theme, New Dreams, Theresa, A Kiss On The Window, Seperate Lives, Launch You must login to send a message. Fire - Vidéo web (YouTube) Vidéos de Gabriel Yared. Famille Petiminus perdue dans la forêt Songtext von Philippe Rombi mit Lyrics, deutscher Übersetzung, Musik-Videos und Liedtexten kostenlos auf Songtexte.com euronews (em português) 14:12 . 俺が10歳の時 フランスの 捕鯨船に 世界を知りすぎた quand j'avais 10 ans, il m'a emmenée sur un baleinier français je connais bien le monde. month visits . DAS! Gabriel Yared à propos de "Sauve qui peut (la vie)" de Jean-Luc Godard (extrait) LaCinetek. Finden Sie perfekte Stock-Fotos zum Thema Agnes Jaoui sowie redaktionelle Newsbilder von Getty Images. Une Nouvelle Famille, Gabriel Yared Tải download 320 nhạc chờ Une Nouvelle Famille,Gabriel Yared UT. DAS! Gabriel Yared song lyrics. 35 Min. Gabriel Yared. Il y a un an, nous quittait notre très regrettée. mit Schauspielerin Stefanie Stappenbeck . mit Moderator und Sänger Yared Dibaba. 3: Bandes originales de polars des années 80, 2000; Du rififi au ciné, Vol. Gabriel Yared – DVDs, Blu-ray Discs, CDs und mehr Ihre Suche nach "gabriel yared" ergab 57 Treffer Sortieren nach: Bitte auswählen Interpret A-Z Interpret Z-A Titel A-Z Titel Z-A Preis aufsteigend Preis absteigend Datum aufsteigend Datum absteigend Rang Ansicht: DAS! 25 Min. DAS! [Xavier Dolan; Jean-Luc Lagarce; Gabriel Yared; André Turpin; Gaspard Ulliel; Nathalie Baye; Vincent Cassel; Léa Seydoux; Marion Cotillard; et al] -- "Après douze ans d'absence, un écrivain retourne dans son village natal pour annoncer à sa famille sa mort prochaine. 30 Jahre DAS! Gabriel Yared - Fire, clip video. - Ab aufs Rote … Dive into the creation of Troy!. Communities. Notes. Du rififi au ciné, Vol. ∙ NDR Fernsehen. UT. No messages, be the first to leave a message. ∙ NDR Fernsehen. I'm sure. Gabriel Yared. Send a Message of Condolences to Solange André Yared. … Ref: QR144-1 Categories: CD, Yared, Gabriel. Mehr aus DAS! DAS! Sort alphabetically : Sort by number of visitors : titre . Gabriel Yared-Le patient anglais Thèmes (piano solo) Aldebaran333. Juste la fin du monde. ∙ NDR Fernsehen. ∙ NDR Fernsehen. 1408 (Original Motion Picture Soundtrack) 2007 Sylvia (Original Motion Picture Soundtrack) 2003 By the Sea (Original Motion Picture Soundtrack) 2015 A Royal Affair (Original Soundtrack) 2012 Message in a Bottle (Original Motion Picture Score) 3: Bandes originales de polars des années 80, 2000 Gabriel Yared. Get this from a library! Messages of Condolences. DAS! Souvenez-vous d'Elle dans vos prières. 1:53. lyrics visits; La chanson d'Azur et Asmar (VO) 44: Je n'ai pas peur: 7: La berceuse : 6: City of Angels: The Unfeeling Kiss: 3: La nourrice, Azur et Asmar: 2: Chanson Azur et Asmar (feat. Une nouvelle famille 2:47: 13 Révélations 3:13: 14 La fuite 3:31: 14 Songs, 41 Minutes ... Also Available in iTunes More By Gabriel Yared See All. TITLE "Une Nouvelle Famille" PERFORMER "Gabriel Yared" ISRC FR2U51400328 INDEX 01 00:00:00 FILE "13 - Revelations.wav" WAVE TRACK 13 AUDIO TITLE "Révélations" PERFORMER "Gabriel Yared" ISRC FR2U51400329 INDEX 01 00:00:00 FILE "14 - La Fuite.wav" WAVE TRACK 14 AUDIO TITLE "La Fuite" PERFORMER "Gabriel Yared" ISRC FR2U51400330 INDEX 01 00:00:00. Camille Claudel ist ein französischer Spielfilm, der als Projekt von der Schauspielerin Isabelle Adjani eingesetzt und geleitet wurde. Bei den Internationalen Filmfestspielen Berlin 1989 hatte der Film im Februar 1989 in Deutschland seine Uraufführung. GABRIEL YARED hat mittlerweile die Musik für über 100 Filme komponiert. Out of stock. Gabriel Yared: The problem is I was born in a family where there are no artists whatsoever. Livret français, Format: CD, Year: 2014, Label: Quartet Records (QR144/1), Barcode: 8436035005543, Length: 41:53 Wählen Sie aus erstklassigen Inhalten zum Thema Agnes Jaoui in höchster Qualität. Gabriel Yared, le compositeur de musique de film oscarisé est l'invité d'Euronews. Entdecke 249 Film-Soundtracks für die Jahre 80 auf FILMSTARTS.de. Zu seinen größten Erfolgen zählen neben seinem Oscar für DER ENGLISCHE PATIENT französische Klassiker wie BETTY BLUE und DER LIEBHABER, aber auch große Hollywood-Filme wie der Nicholas Cage-Film STADT DER ENGEL, DER TALENTIERTE MR. Der Regisseur war ihr damaliger Lebensgefährte Bruno Nuytten.Der Film war in Frankreich ein großer kommerzieller Erfolg. Categories: CD. Gabriel Yared Add scene description Download on Amazon - C'est toi qui décides Play on Spotify - C'est toi qui décides Play on YouTube - C'est toi qui décides I'm born with just a craving for music and no one could understand this. affichage : les + populaires Nothing, through generations, there is nobody. Liste mit 24 Einträgen. 5:23. SOLD OUT. In dem preisgekrönten Drama «Juste la fin du monde» von Xavier Dolan spielen Gaspard Ulliel, Nathalie Baye, Léa Seydoux, Marion Cottilard und Vincent Cassel. I'm born with this gift. Check out Une nouvelle famille by Gabriel Yared on Amazon Music. View credits, reviews, tracks and shop for the 1978 Gatefold Vinyl release of Guigui on Discogs. Gabriel Yared – Betty Blue – 37,2 Grad am Morgen (37° 2 le matin) Bestes Szenenbild (Meilleur décors) Pierre Guffroy – Piraten (Pirates) Bernard Evein – Thérèse Jacques Saulnier – Mélo Alexandre Trauner – Um Mitternacht (Autour de minuit) Beste Kostüme (Meilleur costumes) Add to Wishlist. Africanews français. 23 Min. Tom à la ferme, Format: CD, Year: 2014, Label: Quartet Records (QR144/2), Barcode: 8436035005543, Length: 41:53 To celebrate the release of Troy in 2 CD edition by Intrada (see our exclusive review here) we publish a archival interview in English of James Horner published in 2004 in the French magazine Cinéfonia.These are actually two interviews that we merged for this publication. Stream ad-free or purchase CD's and MP3s now on Amazon.com. Camille Claudel (1988) cast and crew credits, including actors, actresses, directors, writers and more. 90 Min. There is like an angel protecting my life. 1:53. Gabriel Yared et famille (à l’étranger) Leur regrettée mère, grand-mère et soeur. UT. mit Kabarettistin Maren Kroymann. Compositor Gabriel Yared em entrevista à euronews. Availabilty: SOLD OUT. Site officiel du compositeur de musiques de films Gabriel yared. mit Schauspielerin Minh-Khai Phan Thi. DAS! la prairie - Coub - The Biggest Video Meme Platform by karavdin UT. Description Tracklist The new film directed by Xavier Dolan (Laurence Anyways, I Killed My Mother) is a psychological thriller, based on a play written by Michel Marc Bouchard. Gabriel Yared (né le 7 octobre 1949 à Beyrouth au Liban) est un compositeur et arrangeur français d'origine libanaise. FIMU – International Film Music Symposium Vienna. Add to Wishlist. Gabriel Yared… Nach Jahren kehrt Louis zu seiner Familie zurück, um seinen Tod anzukündigen, und reisst alte Wunden auf. DAS!